<?xml version="1.0" standalone="no"?>
<!DOCTYPE svg PUBLIC "-//W3C//DTD SVG 1.1//EN" "http://www.w3.org/Graphics/SVG/1.1/DTD/svg11.dtd" >
<svg xmlns="http://www.w3.org/2000/svg">
<metadata>Generated by IcoMoon</metadata>
<defs>
<font id="icomoon" horiz-adv-x="1024">
<font-face units-per-em="1024" ascent="960" descent="-64" />
<missing-glyph horiz-adv-x="1024" />
<glyph unicode="&#x20;" horiz-adv-x="512" d="" />
<glyph unicode="&#xe900;" glyph-name="close-24" d="M542.17 448l346.953 346.954-30.17 30.17-346.953-346.954-346.954 346.954-30.17-30.17 346.954-346.954-346.954-346.953 30.17-30.17 346.954 346.953 346.953-346.953 30.17 30.17-346.953 346.953z" />
<glyph unicode="&#xe901;" glyph-name="menu-24" d="M85.333 768h853.333v-42.667h-853.333v42.667zM85.333 469.333h853.333v-42.667h-853.333v42.667zM938.667 170.667h-853.333v-42.667h853.333v42.667z" />
<glyph unicode="&#xe902;" glyph-name="plus-24" d="M533.333 469.333v405.333h-42.667v-405.333h-405.333v-42.667h405.333v-405.333h42.667v405.333h405.333v42.667h-405.333z" />
<glyph unicode="&#xe903;" glyph-name="search-24" d="M725.333 576c0 188.513-152.819 341.333-341.333 341.333s-341.333-152.82-341.333-341.333c0-188.514 152.82-341.333 341.333-341.333s341.333 152.819 341.333 341.333zM682.667 576c0-164.949-133.717-298.667-298.667-298.667s-298.667 133.717-298.667 298.667c0 164.949 133.718 298.667 298.667 298.667s298.667-133.718 298.667-298.667zM661.333 256l256-256 30.17 30.17-256 256-30.17-30.17z" />
<glyph unicode="&#xe904;" glyph-name="heart-no-24" d="M695.467 789.333c93.867 0 173.653-64 193.707-156.587 15.787-66.987 3.84-139.093-32-197.547-40.107-65.28-137.387-159.147-273.067-264.96-15.36-11.947-49.067-36.693-72.107-53.76-23.467 17.067-56.747 41.387-72.107 53.76-135.68 105.813-232.533 199.68-273.067 264.96-36.267 58.453-47.787 130.56-32 197.973 20.053 92.16 99.84 156.16 193.707 156.16 46.507 0 89.6-16.64 124.587-47.787 6.827-5.547 12.8-11.947 18.773-18.773l9.387-9.813 30.72-31.573 30.72 31.573 9.387 9.813c6.4 6.4 12.373 13.227 18.773 18.773 34.987 31.147 78.080 47.787 124.587 47.787zM695.467 832c-53.76 0-107.947-18.347-152.747-58.453-7.68-6.827-14.507-14.080-21.76-21.76-2.987-2.987-5.973-5.973-8.96-8.96-2.987 2.987-5.973 5.973-8.96 9.387-7.253 7.253-14.080 14.933-21.76 21.333-44.8 40.107-98.987 58.453-152.747 58.453-105.813 0-209.493-71.68-235.52-189.44-18.347-78.080-4.693-161.707 37.12-229.547 55.893-90.453 189.867-203.947 282.88-276.053 26.453-20.48 98.987-72.96 98.987-72.96s72.533 52.48 98.56 72.533c93.013 72.533 226.987 185.6 282.88 276.053 41.813 67.84 55.467 151.467 37.12 229.547-25.6 118.187-129.28 189.867-235.093 189.867z" />
<glyph unicode="&#xe905;" glyph-name="heart-yes-24" d="M610.475 136.7c92.975 72.363 227.14 185.647 283.051 276.25 41.835 67.686 55.445 151.548 37.248 229.519-38.878 177.612-254.161 250.188-388.258 131.164-7.543-6.65-14.494-14.022-21.632-21.592-2.91-3.089-5.854-6.211-8.883-9.33-3.029 3.119-5.973 6.242-8.883 9.331-7.138 7.569-14.089 14.941-21.632 21.591-134.099 119.025-349.381 46.448-388.258-131.164-18.196-77.972-4.586-161.833 37.25-229.519 55.909-90.603 190.075-203.887 283.047-276.25 25.905-20.169 98.476-72.7 98.476-72.7s72.572 52.531 98.475 72.7z" />
<glyph unicode="&#xe906;" glyph-name="arrow-16" d="M128 386.746h672l-103.763-103.764 45.254-45.254 181.018 181.018-181.018 181.019-45.254-45.254 103.763-103.764h-672v-64z" />
<glyph unicode="&#xe907;" glyph-name="bullet-16" d="M512 320c-70.692 0-128 57.308-128 128s57.308 128 128 128c70.692 0 128-57.308 128-128s-57.308-128-128-128zM512 256c106.038 0 192 85.962 192 192s-85.962 192-192 192c-106.038 0-192-85.962-192-192s85.962-192 192-192z" />
<glyph unicode="&#xe908;" glyph-name="calendar-16" d="M640 896h64v-64h32c88.365 0 160-71.635 160-160v-448c0-88.365-71.635-160-160-160h-448c-88.365 0-160 71.635-160 160v448c0 88.365 71.635 160 160 160h32v64h64v-64h256v64zM320 768h-32c-53.020 0-96-42.98-96-96v-32h640v32c0 53.020-42.982 96-96 96h-32v-64h-64v64h-256v-64h-64v64zM192 576v-352c0-53.018 42.98-96 96-96h448c53.018 0 96 42.982 96 96v352h-640z" />
<glyph unicode="&#xe909;" glyph-name="close-16" d="M557.255 448l294.156 294.156-45.254 45.255-294.157-294.157-294.156 294.157-45.255-45.255 294.156-294.156-294.156-294.157 45.255-45.254 294.156 294.156 294.157-294.156 45.254 45.254-294.156 294.157z" />
<glyph unicode="&#xe90a;" glyph-name="drop-down-16" d="M512.035 255.917l-309.034 309.033 60.373 60.33 248.661-248.704 248.663 248.704 60.371-60.33-309.034-309.033z" />
<glyph unicode="&#xe90b;" glyph-name="drop-up-16" d="M512.035 640.085l-309.034-309.035 60.373-60.33 248.661 248.704 248.663-248.704 60.371 60.33-309.034 309.035z" />
<glyph unicode="&#xe90c;" glyph-name="location-16" d="M512 384.001c82.475 0 149.331 66.858 149.331 149.333s-66.856 149.333-149.331 149.333c-82.474 0-149.333-66.859-149.333-149.333s66.859-149.333 149.333-149.333zM597.334 533.334c0-47.128-38.205-85.333-85.334-85.333s-85.333 38.205-85.333 85.333c0 47.128 38.205 85.333 85.333 85.333s85.334-38.205 85.334-85.333zM873.594 513.919c0 95.619-37.984 187.32-105.594 254.934-67.898 67.895-159.982 106.038-256.001 106.038s-188.104-38.143-256-106.038c-67.895-67.896-106.038-159.981-106.038-256s38.143-188.105 106.038-256.002c24.596-24.64 49.317-49.19 74.034-73.734 45.771-45.453 91.551-90.912 136.614-137.043 14.92-15.277 29.763-30.624 44.499-46.074 14.737 15.45 29.574 30.803 44.487 46.086 45.422 46.547 91.548 92.454 137.66 138.342 24.941 24.819 49.882 49.638 74.707 74.56 67.61 67.61 105.594 159.313 105.594 254.931zM648.755 230.4c-45.85-45.632-92.093-91.648-137.622-138.285-45.194 46.24-91.123 91.853-136.64 137.050-24.578 24.41-49.037 48.698-73.196 72.902-55.893 55.891-87.336 131.741-87.336 210.786s31.4 154.852 87.293 210.745c55.893 55.893 131.7 87.293 210.745 87.293s154.855-31.4 210.746-87.293c55.61-55.611 86.848-131.034 86.848-209.679s-31.238-154.068-86.848-209.676l-0.083-0.090c-24.403-24.493-49.101-49.069-73.907-73.754z" />
<glyph unicode="&#xe90d;" glyph-name="tick-16" d="M448.035 142.72l-245.034 245.034 60.373 60.331 184.661-184.706 440.663 440.706 60.371-60.331-501.034-501.034z" />
<glyph unicode="&#xe90e;" glyph-name="plus-16" d="M544 480v352h-64v-352h-352v-64h352v-352h64v352h352v64h-352z" />
<glyph unicode="&#xe90f;" glyph-name="ruller-16" d="M715.648 923.176l-678.824-678.824 271.529-271.526 678.821 678.821-271.526 271.529zM715.648 832.666l181.018-181.020-588.312-588.312-181.020 181.018 113.138 113.139 90.509-90.508 22.627 22.624-90.509 90.512 67.882 67.882 90.51-90.51 22.628 22.627-90.51 90.51 67.882 67.883 90.51-90.51 22.627 22.627-90.51 90.51 67.882 67.882 90.51-90.51 22.628 22.627-90.51 90.51 67.882 67.883 90.508-90.51 22.63 22.627-90.511 90.51 90.511 90.509z" />
<glyph unicode="&#xe910;" glyph-name="settings-16" d="M96 960h64v-576h-64v576zM992 576h-192v192h192v-192zM416 544h192v-192h-192v192zM32 320h192v-192h-192v192zM544 960h-64v-352h64v352zM864-64h64v576h-64v-576zM160 64h-64v-128h64v128zM480-64h64v352h-64v-352zM928 832h-64v128h64v-128z" />
<glyph unicode="&#xe911;" glyph-name="taget-16" d="M192 672c0 53.020 42.98 96 96 96h224v64h-224c-88.365 0-160-71.635-160-160v-448c0-88.365 71.635-160 160-160h448c88.365 0 160 71.635 160 160v224h-64v-224c0-53.018-42.982-96-96-96h-448c-53.020 0-96 42.982-96 96v448zM447.334 338.079l384.666 384.667v-146.746h64v256h-256v-64h146.746l-384.667-384.666 45.255-45.255z" />
<glyph unicode="&#xe912;" glyph-name="phone-16" d="M938.24 316.8c-14.080 16-33.92 25.6-54.4 27.52h-0.64c-8.96 0.64-16 1.92-20.48 2.56-52.48 7.68-104.32 23.040-152.32 46.080-17.92 8.32-38.4 10.24-56.96 5.12-19.2-5.12-35.84-16.64-46.72-32l-34.56-48c-80 44.8-145.92 110.080-190.080 190.080l48 33.92c33.28 23.68 44.16 67.2 26.88 103.68-23.040 48-38.4 99.84-46.080 152.32-0.64 5.12-1.28 11.52-2.56 21.12-1.92 21.12-12.16 40.32-27.52 55.040-16 14.080-36.48 21.76-57.6 21.76h-150.4c-27.52 0-53.12-10.24-72.96-28.8s-32-43.52-33.92-70.4c-1.28-19.2-1.92-36.48-1.92-49.92 0-412.8 334.080-746.88 746.88-746.88 14.080 0 30.72 0.64 49.92 1.92 26.88 1.92 52.48 14.080 70.4 33.92 18.56 19.84 28.8 45.44 28.8 72.96v150.4c0 21.12-7.68 41.6-21.76 57.6zM896 259.2v-151.040c0-10.88-3.84-21.12-11.52-28.8s-17.28-12.8-28.16-13.44c-18.56-1.28-33.92-1.92-45.44-1.92-376.96 0-682.88 305.92-682.88 682.88 0 11.52 0.64 26.88 1.92 45.44 0.64 10.88 5.76 21.12 13.44 28.16s18.56 11.52 29.44 11.52h151.040c5.12 0 10.24-1.92 14.080-5.76s6.4-8.32 7.040-13.44c0.64-9.6 1.28-17.92 2.56-23.68 8.32-58.88 25.6-116.48 51.84-170.88 3.84-8.32 1.28-18.56-6.4-24.32l-92.16-65.28c56.32-131.2 160.64-235.52 291.84-291.84l65.92 92.16c2.56 3.84 6.4 6.4 10.88 7.68 4.48 0.64 8.96 0 13.44-1.92 47.36-22.4 97.92-38.4 149.12-48 7.040-1.28 14.080-2.56 21.12-3.2 5.76-0.64 13.44-1.92 23.68-2.56 5.12-0.64 10.24-3.2 13.44-7.040 3.84-3.84 5.76-8.32 5.76-13.44 0 0 0-0.64 0-1.28z" />
<glyph unicode="&#xe913;" glyph-name="behance" d="M296.021 767.872c29.952 0 57.173-2.56 81.92-8.021 24.619-5.547 45.653-14.080 63.36-26.027 17.493-11.947 31.275-27.733 40.96-47.787 9.6-20.053 14.507-44.8 14.507-73.813 0-31.573-7.253-58.027-21.632-79.36-14.421-21.333-35.712-38.4-64.085-52.053 38.656-11.093 67.243-30.72 86.272-58.453 19.115-28.16 28.373-61.867 28.373-100.693 0-32-5.547-59.307-17.493-82.347-11.947-23.467-28.587-42.667-49.493-57.6-20.48-14.848-44.8-25.6-71.253-32.725-26.027-7.040-53.419-10.837-81.493-10.837h-305.963v629.419h296.021zM722.773 248.96c18.773-18.261 45.781-27.435 80.811-27.435 25.173 0 46.933 6.315 65.28 19.072 18.091 12.373 29.013 26.027 33.28 40.107h110.421c-17.195-54.613-44.715-93.867-81.067-117.333-36.267-23.893-80.384-35.413-131.413-35.413-35.712 0-67.584 5.547-96.939 17.067-28.715 11.52-52.907 27.733-73.387 48.64-19.797 20.907-35.115 46.080-45.952 75.52-10.795 29.44-15.915 61.867-15.915 96.853 0 34.261 5.76 65.707 17.195 95.147 11.52 29.867 27.477 54.613 47.787 76.373 21.12 21.76 45.355 38.187 74.069 50.944s59.733 18.475 94.72 18.475c38.827 0 72.107-6.997 101.547-22.315 28.587-14.507 52.053-34.987 70.827-59.733 18.773-25.003 32-53.76 40.107-86.187 8.107-32 10.667-65.707 8.96-101.547h-328.107c0-35.84 11.947-69.632 30.293-88.107l-3.413-1.28zM285.867 246.827c13.525 0 26.453 1.28 38.656 3.968 12.373 2.56 23.381 7.040 32.555 12.8 8.96 5.76 16.64 13.995 22.187 24.875 5.547 10.24 8.107 24.32 8.107 40.96 0 32-9.387 55.040-27.307 69.12-18.347 13.653-42.24 20.48-72.107 20.48h-149.717v-172.8h147.627zM866.432 487.893c-15.019 16.427-40.107 25.259-70.699 25.259-19.968 0-36.48-3.157-49.749-10.155-12.885-6.4-23.467-14.933-31.573-25.173s-13.525-20.48-16.725-32c-3.2-11.093-5.12-21.333-5.76-30.293h203.179c-2.987 32-14.080 55.467-29.013 72.107zM278.187 514.133c24.491 0 44.8 5.717 60.8 17.579 15.957 11.52 23.637 30.72 23.637 57.088 0 14.677-2.987 26.667-7.68 36.096-5.547 9.387-12.8 16.64-21.333 21.845-8.96 5.291-19.2 8.96-30.72 10.965-11.52 2.261-23.893 3.157-35.84 3.157h-129.237v-146.773zM666.368 725.675h254.635v-62.037h-254.635v62.549z" />
<glyph unicode="&#xe914;" glyph-name="instagram" d="M512 960c-139.093 0-156.459-0.64-211.072-3.072-54.528-2.56-91.648-11.136-124.288-23.808-33.664-13.056-62.251-30.592-90.709-59.051s-46.037-57.003-59.051-90.709c-12.672-32.64-21.291-69.76-23.808-124.288-2.56-54.613-3.072-71.979-3.072-211.072s0.64-156.459 3.072-211.072c2.56-54.485 11.136-91.648 23.808-124.288 13.056-33.621 30.592-62.251 59.051-90.709 28.459-28.416 57.003-46.037 90.709-59.051 32.683-12.629 69.803-21.291 124.288-23.808 54.613-2.56 71.979-3.072 211.072-3.072s156.459 0.64 211.072 3.072c54.485 2.56 91.648 11.179 124.288 23.808 33.621 13.056 62.251 30.635 90.709 59.051 28.416 28.459 46.037 56.96 59.051 90.709 12.629 32.64 21.291 69.803 23.808 124.288 2.56 54.613 3.072 71.979 3.072 211.072s-0.64 156.459-3.072 211.072c-2.56 54.485-11.179 91.691-23.808 124.288-13.056 33.664-30.635 62.251-59.051 90.709-28.459 28.459-56.96 46.037-90.709 59.051-32.64 12.672-69.803 21.291-124.288 23.808-54.613 2.56-71.979 3.072-211.072 3.072zM512 867.84c136.661 0 152.96-0.683 206.933-3.029 49.92-2.347 77.013-10.624 95.019-17.707 23.979-9.259 40.96-20.352 58.965-38.229 17.877-17.92 28.971-34.944 38.229-58.923 6.997-18.005 15.36-45.099 17.621-95.019 2.432-54.016 2.987-70.229 2.987-206.933s-0.64-152.96-3.157-206.933c-2.603-49.92-10.923-77.013-17.963-95.019-9.557-23.979-20.437-40.96-38.357-58.965-17.877-17.877-35.157-28.971-58.88-38.229-17.92-6.997-45.44-15.36-95.36-17.621-54.357-2.432-70.357-2.987-207.317-2.987-137.003 0-153.003 0.64-207.317 3.157-49.963 2.603-77.483 10.923-95.403 17.963-24.277 9.557-40.96 20.437-58.837 38.357-17.963 17.877-29.44 35.157-38.4 58.88-7.040 17.92-15.317 45.44-17.92 95.36-1.92 53.76-2.603 70.357-2.603 206.677 0 136.363 0.683 153.003 2.603 207.403 2.603 49.92 10.88 77.397 17.92 95.317 8.96 24.32 20.437 40.96 38.4 58.923 17.877 17.877 34.56 29.397 58.837 38.315 17.92 7.083 44.843 15.403 94.763 17.963 54.4 1.92 70.4 2.56 207.317 2.56zM512 710.912c-145.28 0-262.912-117.76-262.912-262.912 0-145.28 117.76-262.912 262.912-262.912 145.28 0 262.912 117.76 262.912 262.912 0 145.28-117.76 262.912-262.912 262.912zM512 277.333c-94.293 0-170.667 76.373-170.667 170.667s76.373 170.667 170.667 170.667 170.667-76.373 170.667-170.667-76.373-170.667-170.667-170.667zM846.763 721.28c0-33.92-27.563-61.44-61.44-61.44-33.92 0-61.44 27.563-61.44 61.44s27.563 61.397 61.44 61.397c33.835 0.043 61.44-27.52 61.44-61.397z" />
<glyph unicode="&#xe915;" glyph-name="linkedin" d="M872.405 87.381h-151.637v237.611c0 56.661-1.152 129.579-79.019 129.579-79.061 0-91.136-61.653-91.136-125.397v-241.792h-151.637v488.619h145.664v-66.603h1.963c20.352 38.4 69.845 78.933 143.787 78.933 153.643 0 182.059-101.12 182.059-232.747zM227.712 642.859c-48.811 0-88.021 39.509-88.021 88.107 0 48.555 39.253 88.021 88.021 88.021 48.64 0 88.064-39.467 88.064-88.021 0-48.597-39.467-88.107-88.064-88.107zM303.744 87.381h-152.064v488.619h152.064zM948.267 960h-872.704c-41.771 0-75.563-33.024-75.563-73.771v-876.459c0-40.789 33.792-73.771 75.563-73.771h872.576c41.728 0 75.861 32.981 75.861 73.771v876.459c0 40.747-34.133 73.771-75.861 73.771z" />
<glyph unicode="&#xe916;" glyph-name="pinterest" d="M512.725 960c-282.496 0-511.488-228.992-511.488-511.445 0-216.704 134.741-401.792 325.035-476.245-4.48 40.491-8.491 102.528 1.749 146.731 9.344 39.979 59.989 254.165 59.989 254.165s-15.317 30.72-15.317 75.989c0 70.955 41.259 124.203 92.501 124.203 43.691 0 64.768-32.811 64.768-72.021 0-43.904-27.861-109.525-42.325-170.325-12.16-50.901 25.6-92.373 75.733-92.373 90.795 0 160.768 95.787 160.768 234.112 0 122.069-88.021 207.744-213.675 207.744-145.493 0-230.784-109.312-230.784-221.824 0-44.075 16.811-91.435 37.931-116.949 4.224-5.12 4.779-9.6 3.627-14.72-3.84-16-12.501-51.157-14.251-58.155-2.261-9.6-7.339-11.563-17.109-7.040-63.787 29.44-103.808 122.795-103.808 198.229 0 161.109 117.248 309.419 337.92 309.419 177.408 0 315.392-126.592 315.392-295.381 0-176.427-111.232-318.379-265.941-318.379-51.797 0-100.437 26.837-117.675 58.837l-31.957-121.515c-11.477-44.587-42.837-100.352-63.915-134.229 47.915-14.72 98.389-22.827 151.467-22.827 281.899 0 511.36 228.907 511.36 511.445 0 282.581-229.461 511.445-511.36 511.445z" />
<glyph unicode="&#xe917;" glyph-name="telegram" d="M1020.16 798.293l-154.027-727.467c-10.667-51.627-41.813-64-85.333-40.107l-234.667 173.653-113.493-109.653c-12.8-12.8-23.467-23.893-46.933-23.893-30.72 0-25.6 11.52-35.84 40.533l-81.067 264.107-232.533 72.533c-50.347 14.933-50.773 49.493 11.093 74.667l907.093 349.867c41.387 18.347 81.067-10.24 65.707-74.24z" />
<glyph unicode="&#xe918;" glyph-name="twitter" d="M1022.037 765.056c-37.76-16.597-78.080-27.904-120.533-33.067 43.264 26.069 76.544 67.157 92.288 116.181-40.576-23.68-85.547-40.917-133.419-50.517-38.229 40.917-92.715 66.517-153.216 66.517-115.925 0-209.92-93.995-209.92-209.792 0-16.64 1.92-32.64 5.419-47.957-174.507 8.235-329.173 92.032-432.683 218.709-18.219-30.805-28.416-66.603-28.416-105.6 0-72.96 37.12-137.088 93.355-174.763-34.432 1.109-66.816 10.581-95.061 26.283v-2.603c0-101.76 72.235-186.624 168.363-205.952-17.621-4.736-36.224-7.296-55.296-7.296-13.397 0-26.24 1.28-39.083 3.669 26.923-83.328 104.32-144.085 196.437-145.792-71.68-56.277-162.517-89.813-260.352-89.813-16.64 0-33.237 0.981-49.92 2.859 93.397-59.477 203.435-94.251 322.432-94.251 386.304 0 597.291 319.829 597.291 596.736 0 8.917 0 17.92-0.64 26.88 41.003 29.397 76.8 66.56 104.96 108.715z" />
<glyph unicode="&#xe919;" glyph-name="youtube" d="M1002.453 695.253c-12.365 43.307-45.781 76.722-88.183 88.866l-0.905 0.222c-79.787 21.376-400.896 21.376-400.896 21.376s-320.299 0.427-400.896-21.376c-43.307-12.365-76.722-45.781-88.866-88.183l-0.222-0.905c-14.173-72.978-22.281-156.904-22.281-242.723 0-1.743 0.003-3.484 0.010-5.225l-0.001 0.268c-0.004-1.198-0.006-2.617-0.006-4.035 0-85.813 8.107-169.732 23.598-251.033l-1.32 8.327c12.365-43.307 45.781-76.722 88.183-88.866l0.905-0.222c79.701-21.419 400.896-21.419 400.896-21.419s320.256 0 400.896 21.419c43.307 12.365 76.722 45.781 88.866 88.183l0.222 0.905c13.59 71.472 21.364 153.686 21.364 237.715 0 3.173-0.011 6.344-0.033 9.513l0.003-0.486c0.024 2.951 0.037 6.439 0.037 9.929 0 84.041-7.776 166.267-22.648 245.996l1.278-8.245zM409.984 294.357v306.901l267.264-153.685z" />
<glyph unicode="&#xe91a;" glyph-name="facebook" d="M1023.919 448.038c0 282.748-229.21 511.962-511.957 511.962s-511.962-229.214-511.962-511.962c0-255.535 187.217-467.332 431.966-505.741v357.751h-129.988v147.989h129.988v112.794c0 128.311 76.433 199.185 193.374 199.185 56.013 0 114.603-10.001 114.603-10.001v-125.99h-64.555c-63.599 0-83.435-39.462-83.435-79.949v-96.038h141.99l-22.699-147.989h-119.292v-357.751c244.753 38.409 431.966 250.206 431.966 505.741z" />
<glyph unicode="&#xe91b;" glyph-name="tiktok" d="M534.613 959.147c55.893 0.853 111.36 0.427 166.827 0.853 3.413-65.28 26.88-131.84 74.667-177.92 47.787-47.36 115.2-69.12 180.907-76.373v-171.947c-61.44 2.133-123.307 14.933-179.2 41.387-24.32 11.093-46.933 25.173-69.12 39.68-0.427-124.587 0.427-249.173-0.853-373.333-3.413-59.733-23.040-119.040-57.6-168.107-55.893-81.92-152.747-135.253-252.16-136.96-61.013-3.413-122.027 13.227-174.080 43.947-86.187 50.773-146.773 143.787-155.733 243.627-0.853 21.333-1.28 42.667-0.427 63.573 7.68 81.067 47.787 158.72 110.080 211.627 70.827 61.44 169.813 90.88 262.4 73.387 0.853-63.147-1.707-126.293-1.707-189.44-42.24 13.653-91.733 9.813-128.853-15.787-26.88-17.493-47.36-44.373-58.027-74.667-8.96-21.76-6.4-45.653-5.973-68.693 10.24-69.973 77.653-128.853 149.333-122.453 47.787 0.427 93.44 28.16 118.187 68.693 8.107 14.080 17.067 28.587 17.493 45.227 4.267 76.373 2.56 152.32 2.987 228.693 0.427 171.947-0.427 343.467 0.853 514.987z" />
<glyph unicode="&#xe91c;" glyph-name="globe-16" d="M512 896c41.125 0 80.792-5.323 119-15.969s73.934-25.667 107.188-45.062c33.248-19.396 63.507-42.73 90.778-70s50.605-57.532 70.003-90.781c19.392-33.25 34.413-68.979 45.062-107.187 10.643-38.209 15.968-77.875 15.968-119s-5.325-80.792-15.968-119c-10.65-38.209-25.67-73.934-45.062-107.188-19.398-33.248-42.733-63.507-70.003-90.778s-57.53-50.605-90.778-70.003c-33.254-19.392-68.979-34.413-107.188-45.062-38.209-10.643-77.875-15.968-119-15.968s-80.792 5.325-119 15.968c-38.208 10.65-73.937 25.67-107.187 45.062-33.25 19.398-63.51 42.733-90.781 70.003s-50.604 57.53-70 90.778c-19.396 33.254-34.417 68.909-45.062 106.97s-15.969 77.802-15.969 119.219c0 41.125 5.323 80.792 15.969 119s25.667 73.937 45.062 107.187c19.396 33.25 42.73 63.51 70 90.781s57.532 50.604 90.781 70c33.25 19.396 68.906 34.417 106.969 45.062s77.802 15.969 119.219 15.969zM865.939 616c-11.085 23.625-24.499 45.864-40.25 66.719s-33.254 39.885-52.499 57.094c-19.251 17.208-40.109 32.521-62.566 45.937s-45.939 24.355-70.438 32.813c10.502-14.584 19.981-30.042 28.442-46.375 8.454-16.333 15.968-33.177 22.528-50.531 6.566-17.354 12.179-34.927 16.845-52.719s8.749-35.437 12.25-52.938h145.69zM904 448c0 38.792-5.395 76.125-16.186 112h-158.816c2.336-18.667 4.083-37.26 5.254-55.781 1.165-18.521 1.747-37.261 1.747-56.219s-0.582-37.698-1.747-56.219c-1.171-18.521-2.918-37.114-5.254-55.781h158.816c10.79 35.875 16.186 73.208 16.186 112zM512 56c14.292 0 27.635 3.936 40.031 11.814 12.396 7.872 23.844 18.227 34.344 31.059s19.906 27.347 28.219 43.533c8.312 16.186 15.677 32.595 22.093 49.216 6.417 16.627 11.812 32.672 16.189 48.128 4.371 15.456 7.725 28.877 10.061 40.25h-301.875c2.333-11.373 5.688-24.794 10.063-40.25s9.771-31.501 16.188-48.128c6.417-16.621 13.781-33.030 22.093-49.216s17.719-30.701 28.219-43.533c10.5-12.832 21.948-23.187 34.344-31.059 12.396-7.878 25.74-11.814 40.031-11.814zM672.563 336c2.33 18.667 4.154 37.26 5.466 55.781s1.971 37.261 1.971 56.219c0 18.958-0.659 37.698-1.971 56.219s-3.136 37.114-5.466 55.781h-321.126c-2.333-18.667-4.156-37.26-5.469-55.781s-1.969-37.261-1.969-56.219c0-18.958 0.656-37.698 1.969-56.219s3.135-37.114 5.469-55.781h321.126zM120 448c0-38.792 5.396-76.125 16.188-112h158.813c-2.333 18.667-4.084 37.26-5.251 55.781s-1.75 37.261-1.75 56.219c0 18.958 0.583 37.698 1.75 56.219s2.917 37.114 5.251 55.781h-158.813c-10.792-35.875-16.188-73.208-16.188-112zM512 840c-14.292 0-27.635-3.937-40.031-11.812s-23.844-18.229-34.344-31.062c-10.5-12.833-19.906-27.344-28.219-43.532s-15.677-32.594-22.093-49.219c-6.417-16.625-11.812-32.667-16.188-48.125s-7.729-28.876-10.063-40.25h301.875c-2.336 11.375-5.69 24.792-10.061 40.25-4.378 15.458-9.773 31.5-16.189 48.125s-13.781 33.031-22.093 49.219c-8.313 16.188-17.719 30.698-28.219 43.532s-21.948 23.187-34.344 31.062c-12.396 7.875-25.74 11.812-40.031 11.812zM383.812 818.563c-24.5-8.458-47.979-19.396-70.438-32.813s-43.312-28.729-62.562-45.937c-19.251-17.208-36.75-36.239-52.5-57.094s-29.167-43.094-40.25-66.719h145.687c3.5 17.5 7.583 35.146 12.25 52.938s10.281 35.364 16.844 52.719c6.563 17.354 14.073 34.198 22.531 50.531s17.938 31.791 28.438 46.375zM158.063 280c11.083-23.622 24.5-45.862 40.25-66.72 15.75-20.851 33.25-39.885 52.5-57.094s40.104-32.518 62.562-45.933c22.459-13.421 45.938-24.358 70.438-32.813-10.5 14.579-19.979 30.042-28.438 46.374s-15.969 33.178-22.531 50.528c-6.563 17.357-12.177 34.931-16.844 52.723-4.667 17.786-8.75 35.437-12.25 52.934h-145.687zM640.186 77.44c24.499 8.454 47.981 19.392 70.438 32.813 22.458 13.414 43.315 28.723 62.566 45.933 19.245 17.21 36.749 36.243 52.499 57.094 15.75 20.858 29.165 43.098 40.25 66.72h-145.69c-3.501-17.498-7.584-35.149-12.25-52.934-4.666-17.792-10.278-35.366-16.845-52.723-6.56-17.35-14.074-34.195-22.528-50.528-8.461-16.333-17.939-31.795-28.442-46.374z" />
<glyph unicode="&#xe91d;" glyph-name="instagram-16" d="M698.662 821.34c49.466-0.148 96.858-19.863 131.84-54.841 34.976-34.977 54.688-82.374 54.835-131.839v-373.322c-0.147-49.466-19.859-96.858-54.835-131.84-34.982-34.976-82.374-54.688-131.84-54.835h-373.322c-49.466 0.147-96.862 19.859-131.839 54.835-34.978 34.982-54.693 82.374-54.841 131.84v373.322c0.148 49.466 19.863 96.862 54.841 131.839s82.374 54.693 131.839 54.841h373.322zM698.662 896h-373.322c-143.74 0-261.34-117.6-261.34-261.34v-373.322c0-143.738 117.6-261.338 261.34-261.338h373.322c143.738 0 261.338 117.6 261.338 261.338v373.322c0 143.74-117.6 261.34-261.338 261.34zM754.662 634.66c-11.078 0-21.907 3.284-31.117 9.438s-16.384 14.899-20.621 25.132c-4.243 10.232-5.35 21.492-3.187 32.355 2.157 10.863 7.494 20.841 15.322 28.673 7.834 7.832 17.811 13.165 28.678 15.326 10.861 2.161 22.118 1.052 32.352-3.187s18.982-11.416 25.133-20.625c6.15-9.209 9.44-20.036 9.44-31.112 0.013-7.358-1.427-14.647-4.23-21.449-2.81-6.801-6.938-12.98-12.141-18.184s-11.379-9.327-18.182-12.136c-6.803-2.809-14.093-4.246-21.446-4.231zM512 597.34c29.537 0 58.41-8.759 82.969-25.169s43.7-39.733 55.002-67.021c11.302-27.288 14.259-57.316 8.499-86.285s-19.985-55.579-40.871-76.465c-20.886-20.886-47.496-35.111-76.465-40.871s-58.996-2.803-86.285 8.499c-27.288 11.302-50.612 30.444-67.021 55.002s-25.169 53.432-25.169 82.969c0.043 39.594 15.79 77.555 43.788 105.553s65.958 43.745 105.553 43.788zM512 672c-44.303 0-87.611-13.137-124.447-37.751s-65.548-59.597-82.502-100.528c-16.954-40.931-21.39-85.969-12.747-129.421s29.977-83.364 61.304-114.693c31.327-31.328 71.24-52.659 114.692-61.299 43.452-8.646 88.49-4.211 129.421 12.742s75.917 45.664 100.525 82.502c24.614 36.837 37.754 80.145 37.754 124.448 0 59.409-23.597 116.384-65.606 158.392s-98.985 65.608-158.394 65.608z" />
</font>
</defs>
</svg>
